منتخب بازارچه

فیلم های 2015 با بالاترین حجم و کیفیت | حجم هر فیلم 30 گیگ به بالا فرمت Movies Remux | MKV

smrt1367720

فروشنده معتبر [؟]
امتیاز - 100%
14   0   0
با عرض سلام و خسته نباشید خدمت تمامی دوستان از اونجایی که خیلی از دوستان خواهان فیلم هایی هستند که بالاترین کیفیت ممکن رو داشته باشه بنابرین آرشیو فیلمی رو دارم اماده میکنم برای فروش این ارشیو بالاترین سطح کیفیت فیلم رو در بین تمامی فیلم ها داره و از فیلم های بلوری 50 گیگ جدا شده بدون هیچ گونه افت کیفیتی

مشخصات یکی از فیلم ها رو برای نمونه میزارم به علاوه عکس هایی از فیلم بیت ریت 32000


Maximum bit rate : 32.0 Mbps
Width : 1 920 pixels
Height : 1 080 pixels


Video
ID : 1
Format : AVC
Format/Info : Advanced Video Codec
Format profile : [email protected]
Format settings, CABAC : Yes
Format settings, ReFrames : 4 frames
Codec ID : V_MPEG4/ISO/AVC
Duration : 2h 13mn
Bit rate mode : Variable
Maximum bit rate : 32.0 Mbps
Width : 1 920 pixels
Height : 1 080 pixels

Display aspect ratio : 16:9
Frame rate mode : Constant
Frame rate : 23.976 (24000/1001) fps
Color space : YUV
Chroma subsampling : 4:2:0
Bit depth : 8 bits
Scan type : Progressive
Title : Creed.2015.1080p.BluRay.REMUX.AVC.DTS-HD.MA.7.1-RARBG
Language : English
Default : No
Forced : No

Audio #1
ID : 2
Format : DTS
Format/Info : Digital Theater Systems
Format profile : MA / Core
Mode : 16
Format settings, Endianness : Big
Codec ID : A_DTS
Duration : 2h 13mn
Bit rate mode : Variable / Constant
Bit rate : Unknown / 1 509 Kbps
Channel(s) : 8 channels / 6 channels
Channel positions : Front: L C R, Side: L R, Back: L R, LFE / Front: L C R, Side: L R, LFE
Sampling rate : 48.0 KHz
Frame rate : 93.750 fps (512 spf)
Bit depth : 24 bits
Compression mode : Lossless / Lossy
Title : Creed.2015.1080p.BluRay.REMUX.AVC.DTS-HD.MA.7.1-RARBG
Language : English
Default : Yes
Forced : No

Audio #2
ID : 3
Format : DTS
Format/Info : Digital Theater Systems
Mode : 16
Format settings, Endianness : Big
Codec ID : A_DTS
Duration : 2h 13mn
Bit rate mode : Constant
Bit rate : 1 509 Kbps
Channel(s) : 6 channels
Channel positions : Front: L C R, Side: L R, LFE
Sampling rate : 48.0 KHz
Frame rate : 93.750 fps (512 spf)
Bit depth : 24 bits
Compression mode : Lossy
Stream size : 1.40 GiB (4%)
Title : Creed.2015.1080p.BluRay.REMUX.AVC.DTS-HD.MA.7.1-RARBG
Language : English
Default : No
Forced : No

Audio #3
ID : 4
Format : AC-3
Format/Info : Audio Coding 3
Mode extension : CM (complete main)
Format settings, Endianness : Big
Codec ID : A_AC3
Duration : 2h 13mn
Bit rate mode : Constant
Bit rate : 640 Kbps
Channel(s) : 6 channels
Channel positions : Front: L C R, Side: L R, LFE
Sampling rate : 48.0 KHz
Frame rate : 31.250 fps (1536 spf)
Compression mode : Lossy
Stream size : 610 MiB (2%)
Title : Creed.2015.1080p.BluRay.REMUX.AVC.DTS-HD.MA.7.1-RARBG
Language : English
Default : No
Forced : No

Audio #4
ID : 5
Format : AC-3
Format/Info : Audio Coding 3
Mode extension : CM (complete main)
Format settings, Endianness : Big
Codec ID : A_AC3
Duration : 2h 13mn
Bit rate mode : Constant
Bit rate : 640 Kbps
Channel(s) : 6 channels
Channel positions : Front: L C R, Side: L R, LFE
Sampling rate : 48.0 KHz
Frame rate : 31.250 fps (1536 spf)
Compression mode : Lossy
Stream size : 610 MiB (2%)
Title : Creed.2015.1080p.BluRay.REMUX.AVC.DTS-HD.MA.7.1-RARBG
Language : French
Default : No
Forced : No

Audio #5
ID : 6
Format : AC-3
Format/Info : Audio Coding 3
Mode extension : CM (complete main)
Format settings, Endianness : Big
Codec ID : A_AC3
Duration : 2h 13mn
Bit rate mode : Constant
Bit rate : 640 Kbps
Channel(s) : 6 channels
Channel positions : Front: L C R, Side: L R, LFE
Sampling rate : 48.0 KHz
Frame rate : 31.250 fps (1536 spf)
Compression mode : Lossy
Stream size : 610 MiB (2%)
Title : Creed.2015.1080p.BluRay.REMUX.AVC.DTS-HD.MA.7.1-RARBG
Language : Spanish
Default : No
Forced : No

Audio #6
ID : 7
Format : AC-3
Format/Info : Audio Coding 3
Mode extension : CM (complete main)
Format settings, Endianness : Big
Codec ID : A_AC3
Duration : 2h 13mn
Bit rate mode : Constant
Bit rate : 640 Kbps
Channel(s) : 6 channels
Channel positions : Front: L C R, Side: L R, LFE
Sampling rate : 48.0 KHz
Frame rate : 31.250 fps (1536 spf)
Compression mode : Lossy
Stream size : 610 MiB (2%)
Title : Creed.2015.1080p.BluRay.REMUX.AVC.DTS-HD.MA.7.1-RARBG
Language : Portuguese
Default : No
Forced : No

Text #1
ID : 8
Format : PGS
Muxing mode : zlib
Codec ID : S_HDMV/PGS
Codec ID/Info : Picture based subtitle format used on BDs/HD-DVDs
Title : English-PGS
Language : English
Default : No
Forced : No

Text #2
ID : 9
Format : PGS
Muxing mode : zlib
Codec ID : S_HDMV/PGS
Codec ID/Info : Picture based subtitle format used on BDs/HD-DVDs
Title : French-PGS
Language : French
Default : No
Forced : No

Text #3
ID : 10
Format : PGS
Muxing mode : zlib
Codec ID : S_HDMV/PGS
Codec ID/Info : Picture based subtitle format used on BDs/HD-DVDs
Title : Spanish-PGS
Language : Spanish
Default : No
Forced : No

Text #4
ID : 11
Format : PGS
Muxing mode : zlib
Codec ID : S_HDMV/PGS
Codec ID/Info : Picture based subtitle format used on BDs/HD-DVDs
Title : Portuguese-PGS
Language : Portuguese
Default : No
Forced : No

Text #5
ID : 12
Format : PGS
Muxing mode : zlib
Codec ID : S_HDMV/PGS
Codec ID/Info : Picture based subtitle format used on BDs/HD-DVDs
Title : Spanish-FORCED-PGS
Language : Spanish
Default : No
Forced : No

Text #6
ID : 13
Format : PGS
Muxing mode : zlib
Codec ID : S_HDMV/PGS
Codec ID/Info : Picture based subtitle format used on BDs/HD-DVDs
Title : Portuguese-FORCED-PGS
Language : Portuguese
Default : No
Forced : No

Menu
00:00:00.000 : en:Chapter 01
00:09:14.345 : en:Chapter 02
00:22:06.867 : en:Chapter 03
00:31:31.890 : en:Chapter 04
00:41:34.533 : en:Chapter 05
00:52:17.968 : en:Chapter 06
01:01:32.021 : en:Chapter 07
01:09:13.899 : en:Chapter 08
01:19:00.944 : en:Chapter 09
01:25:13.608 : en:Chapter 10
01:32:27.750 : en:Chapter 11
01:41:16.403 : en:Chapter 12
01:50:14.399 : en:Chapter 13
02:01:07.677 : en:Chapter 14
02:06:35.296 : en:Chapter 15

برخی از فیلم های این آرشیو بزرگ
Black Mass 2015 BluRay REMUX 1080p AVC DTS-HD MA 5.1-HDB

Legend 2015 BluRay REMUX 1080p AVC TrueHD Atmos 7.1

Bridge of Spies 2015 BluRay REMUX 1080p AVC DTS-HD MA 7.1

Spectre 2015 BluRay REMUX 1080p AVC DTS-HD MA 7.1

Straight Outta Compton 2015 Directors Cut BluRay REMUX 1080p AVC DTS-HD MA 5.1

Everest 2015 BluRay REMUX 1080p AVC TrueHD Atmos 7.1

The Walk 2015 1080p BluRay DTS x264-SPARKS

Sicario 2015 BluRay REMUX 1080p AVC TrueHD Atmos 7.1

Goosebumps 2015 BluRay REMUX 1080p AVC TrueHD Atmos 7.1-HDB

Solace 2015 BluRay REMUX 1080p AVC DTS-HD MA 5.1-BiTHD

Paranormal Activity The Ghost Dimension 2015 Extended BluRay REMUX 1080p AVC DTS-HD MA 5.1

Burnt 2015 BluRay REMUX 1080p AVC DTS-HD MA 5.1

Hotel Transylvania 2 2015 BluRay 3D REMUX 1080p AVC DTS-HD MA 5.1

Sinister 2 2015 BluRay REMUX 1080p AVC DTS-HD MA 5.1-FraMeSToR

Pan 2015 1080p BluRay DD5.1 x264-HDMaNiAcS

The Wave 2015 Norwegian BluRay REMUX 1080p AVC TrueHD Atmos 7.1
Ant-Man 2015 BluRay REMUX 1080p AVC DTS-HD MA 7.1

Ted 2 2015 Unrated Extended BluRay REMUX 1080p AVC DTS-HD MA 5.1

The Transporter Refueled 2015 BluRay REMUX 1080p AVC DTS-HD MA 5.1

Hitman Agent 47 2015 BluRay REMUX 1080p AVC DTS-HD MA 7.1

Maze Runner - The Scorch Trials 2015 BluRay REMUX 1080p AVC DTS-HD MA 7.1

The Man from U.N.C.L.E. 2015 BluRay REMUX 1080p AVC TrueHD Atmos 7.1

Minions 2015 1080p BluRay 3D REMUX AVC TrueHD Atmos 7.1

Monster hunt 2015 1080p BluRay DTS x264-WiKi

No Escape 2015 BluRay REMUX 1080p AVC DTS-HD MA 5.1

Fantastic Four 2015 BluRay REMUX 1080p AVC DTS-HD MA 7.1-BiTHD

Selfless 2015 BluRay REMUX 1080p AVC DTS-HD MA 5.1-BiTHD

The Wolfpack 2015 1080p BluRay DD5.1 x264-SA89

Inside Out 2015 BluRay 3D REMUX 1080p AVC DTS-HD MA 7.1
.
Max 2015 BluRay REMUX 1080p AVC DTS-HD MA 5.1

Pixels 2015 BluRay REMUX 1080p AVC TrueHD Atmos 7.1

Southpaw 2015 BluRay REMUX 1080p AVC DTS-HD MA 5.1

Terminator Genisys 2015 BluRay REMUX 1080p AVC TrueHD Atmos 7.1

Magic Mike XXL 2015 BluRay REMUX 1080p AVC DTS-HD MA 5.1-LEGi0N

Insidious Chapter 2 2013 BluRay REMUX 1080p AVC DTS-HD MA 5.1

Spy 2015 Unrated Cut BluRay REMUX 1080p AVC DTS-HD MA 7.1

The Age of Adaline 2015 BluRay 1080p DD5.1 x264

The 33 2015 BluRay 1080p DTS-HD MA 5.1 x264

Macbeth 2015 BluRay REMUX 1080p AVC DTS-HD MA 5.1

The Good Dinosaur 2015 BluRay REMUX 1080p AVC DTS-HD MA 7.1

Steve Jobs 2015 BluRay REMUX 1080p AVC DTS-HD MA 5.1

Trumbo 2015 BluRay REMUX 1080p AVC DTS-HD MA 5.1

Crimson Peak 2015 BluRay 1080p DTS-X 7.1 x264
راه های ارتباطی :
پیام خصوصی همین تایپیک
ایدی و ایمیل : [email protected]
ایدی لاین: Reza_Tb1367
ایدی تلگرام: Reza_Tb1367
کانال تلگرام
https://telegram.me/datacity
 

فایل های ضمیمه

Last edited:

ATH24

Registered User
امتیاز - 100%
1   0   0
با سلام.
دقیقا از چه لحاضی با فیلم های سه بعدی فرق دارند.
فرقشون اینه که سه بعدی نیستند و حجم بالایی دارند یا نه
 

smrt1367720

فروشنده معتبر [؟]
امتیاز - 100%
14   0   0
با سلام.
دقیقا از چه لحاضی با فیلم های سه بعدی فرق دارند.
فرقشون اینه که سه بعدی نیستند و حجم بالایی دارند یا نه
سلام
فیلم های ریمیکس دقیقا همون فیلم های 50 گیگ هستند با این تفاوت که به صورت فرمت ام کا وی می باشند
بیت ریتشون هم 30000 به بالا هست
 

ATH24

Registered User
امتیاز - 100%
1   0   0
اهاا مرسی
بعد از لحاض کیفیت با سه بعدی مقایسه شون کنی چجورین
اینطورین:
یعنی منظورم اینه که سه بعدی برای دیدن سه بعدی فیلم خوبه و اینکه این فیلمها برای دیدن توی تلویزیون با کیفیت بالا
 

smrt1367720

فروشنده معتبر [؟]
امتیاز - 100%
14   0   0
اهاا مرسی
بعد از لحاض کیفیت با سه بعدی مقایسه شون کنی چجورین
اینطورین:
یعنی منظورم اینه که سه بعدی برای دیدن سه بعدی فیلم خوبه و اینکه این فیلمها برای دیدن توی تلویزیون با کیفیت بالا
اگر سه بعدی 50 گیگ منظورتون هست همون کیفیت بالا رو دارند
بله خب سه بعدی رو به صورت سه بعدی میبینن این فیلم ها به صورت معمولی و دو بعدی هستند منظور از دو بعدی همین فیلم های عادی هستند
 

ATH24

Registered User
امتیاز - 100%
1   0   0
اهاا مرسی.
پس میشه گفت کارشون کیفیت معمولی هست و اینکه برای کسایی که دستگاه سه بعدی ندارند خوبه چون کیفیتشون بالاست.
و هم توی کامپیوتر و هم تلویزیون میشه دید.
 
بالا